百度云盘.王牌对王牌The.Negotiator.1998.BD1080p.H265.10Bit-HD.5.1-中英双语特效字幕-CMCT@Cuifyun


@片  名 王牌对王牌 The Negotiator

@译  名 冇数讲 / 谈判专家

@口  碑 8.4分

@年  代 1998-07-29(美国

)

@地  区 美国

@类  别 剧情 / 动作 / 悬疑 / 惊悚 / 犯罪

@语  言 英语

@导  演 F·加里·格雷

@主  演 塞缪尔·杰克逊 / 凯文·史派西 / 大卫·摩斯 / 朗·瑞弗金 / 保罗·吉亚玛提

丹尼(塞缪尔·杰克逊 Samuel L. Jackson 饰)是一名出色的谈判专家,屡立战功。当他的人生顺风顺水时,刹那间的转折让他措手不及。他的搭档发现警局内有人私吞公款,却在打算告诉丹尼实情时惨遭杀害,第一时间赶到现场的丹尼自然最大嫌疑人。当他确信是警局内有人要找他做替死鬼,百口莫辩之际,他铤而走险绑架了内务监察部检察官和其助手等人,想通过与警方的对话为自己洗刷罪名。

丹尼要求另一分局派出谈判专家来和自己对话,因为他清楚要谋害自己的人就在自己的局里。于是邻局的谈判专家史宾恩(凯文·史派西 Kevin Spacey 饰)奉命前来和丹尼谈判,史宾恩相信了丹尼,开始为他搜集证据。



General
Unique ID                      : 254790801584383405589675118228099125677 (0xBFAEEC6613D7331CBB0F14F84A7151AD)
Complete name                  : D:\电影\王牌对王牌The.Negotiator.1998.BD1080p.H265.10Bit-HD.5.1-中英文特效字幕-CMCT@Cuifyun.mkv
Format                         : Matroska
Format version                 : Version 4 / Version 2
File size                      : 5.37 GiB
Duration                       : 2 h 19 min
Overall bit rate               : 5 512 kb/s
Encoded date                   : UTC 2019-03-28 14:22:38
Writing application            : mkvmerge v9.4.2 ('So High') 64bit
Writing library                : libebml v1.3.4 + libmatroska v1.4.5 / ShanaEncoder
Video
ID                             : 1
Format                         : HEVC
Format/Info                    : High Efficiency Video Coding
Format profile                 : Main 10@L4.1@Main
Codec ID                       : V_MPEGH/ISO/HEVC
Duration                       : 2 h 19 min
Bit rate                       : 4 953 kb/s
Width                          : 1 920 pixels
Height                         : 1 080 pixels
Display aspect ratio           : 16:9
Frame rate mode                : Constant
Frame rate                     : 60.000 FPS
Color space                    : YUV
Chroma subsampling             : 4:2:0
Bit depth                      : 10 bits
Bits/(Pixel*Frame)             : 0.040
Stream size                    : 4.83 GiB (90%)
Writing library                : x265 2.8:[Windows][GCC 5.1.0][64 bit] 10bit
Encoding settings              : cpuid=1111039 / frame-threads=2 / wpp / no-pmode / no-pme / no-psnr / no-ssim / log-level=2 / input-csp=1 / input-res=1920x1080 / interlace=0 / total-frames=0 / level-idc=0 / high-tier=1 / uhd-bd=0 / ref=4 / no-allow-non-conformance / no-repeat-headers / annexb / no-aud / no-hrd / info / hash=0 / no-temporal-layers / open-gop / min-keyint=60 / keyint=600 / gop-lookahead=0 / bframes=4 / b-adapt=2 / b-pyramid / bframe-bias=0 / rc-lookahead=25 / lookahead-slices=4 / scenecut=40 / radl=0 / no-intra-refresh / ctu=64 / min-cu-size=8 / rect / no-amp / max-tu-size=32 / tu-inter-depth=1 / tu-intra-depth=1 / limit-tu=0 / rdoq-level=2 / dynamic-rd=0.00 / no-ssim-rd / signhide / no-tskip / nr-intra=0 / nr-inter=0 / no-constrained-intra / strong-intra-smoothing / max-merge=3 / limit-refs=3 / limit-modes / me=3 / subme=3 / merange=57 / temporal-mvp / weightp / no-weightb / no-analyze-src-pics / deblock=0:0 / sao / no-sao-non-deblock / rd=4 / no-early-skip / rskip / no-fast-intra / no-tskip-fast / no-cu-lossless / no-b-intra / no-splitrd-skip / rdpenalty=0 / psy-rd=0.00 / psy-rdoq=0.00 / no-rd-refine / no-lossless / cbqpoffs=0 / crqpoffs=0 / rc=abr / bitrate=5000 / qcomp=0.60 / qpstep=4 / stats-write=0 / stats-read=0 / ipratio=1.40 / pbratio=1.30 / aq-mode=2 / aq-strength=1.00 / cutree / zone-count=0 / no-strict-cbr / qg-size=32 / no-rc-grain / qpmax=69 / qpmin=0 / no-const-vbv / sar=1 / overscan=0 / videoformat=5 / range=0 / colorprim=2 / transfer=2 / colormatrix=2 / chromaloc=0 / display-window=0 / max-cll=0,0 / min-luma=0 / max-luma=1023 / log2-max-poc-lsb=8 / vui-timing-info / vui-hrd-info / slices=1 / no-opt-qp-pps / no-opt-ref-list-length-pps / no-multi-pass-opt-rps / scenecut-bias=0.05 / no-opt-cu-delta-qp / no-aq-motion / no-hdr / no-hdr-opt / no-dhdr10-opt / no-idr-recovery-sei / analysis-reuse-level=5 / scale-factor=0 / refine-intra=0 / refine-inter=0 / refine-mv=0 / no-limit-sao / ctu-info=0 / no-lowpass-dct / refine-mv-type=0 / copy-pic=1 / max-ausize-factor=1.0 / no-dynamic-refine / no-single-sei
Default                        : No
Forced                         : No
Audio #1
ID                             : 2
Format                         : AAC
Format/Info                    : Advanced Audio Codec
Format profile                 : HE-AAC / LC
Format settings                : NBC
Codec ID                       : A_AAC-5
Duration                       : 2 h 19 min
Bit rate                       : 265 kb/s
Channel(s)                     : 6 channels
Channel positions              : Front: L C R, Side: L R, LFE
Sampling rate                  : 48.0 kHz / 24.0 kHz
Frame rate                     : 23.438 FPS (1024 SPF)
Compression mode               : Lossy
Delay relative to video        : 10 ms
Stream size                    : 266 MiB (5%)
Default                        : Yes
Forced                         : No
Audio #2
ID                             : 3
Format                         : AAC
Format/Info                    : Advanced Audio Codec
Format profile                 : HE-AAC / LC
Format settings                : NBC
Codec ID                       : A_AAC-5
Duration                       : 2 h 19 min
Bit rate                       : 265 kb/s
Channel(s)                     : 6 channels
Channel positions              : Front: L C R, Side: L R, LFE
Sampling rate                  : 48.0 kHz / 24.0 kHz
Frame rate                     : 23.438 FPS (1024 SPF)
Compression mode               : Lossy
Delay relative to video        : 10 ms
Stream size                    : 266 MiB (5%)
Default                        : No
Forced                         : No
Text
ID                             : 4
Format                         : PGS
Muxing mode                    : zlib
Codec ID                       : S_HDMV/PGS
Codec ID/Info                  : Picture based subtitle format used on BDs/HD-DVDs
Duration                       : 2 h 14 min
Bit rate                       : 22.5 kb/s
Count of elements              : 4364
Stream size                    : 21.6 MiB (0%)
Default                        : Yes
Forced                         : No





精品烧包- 版权声明 1、本主题所有言论和图片纯属会员个人意见,与精品烧包立场无关。
2、本站所有主题由该帖子作者发表,该帖子作者cuifyun精品烧包享有帖子相关版权。
3、精品烧包管理员和版主有权不事先通知发贴者而删除本文。
4、其他单位或个人使用、转载或引用本文时必须同时征得该帖子作者cuifyun精品烧包的同意。
5、本帖内容皆来自网络,用于网友兴趣交流所用,所表达内容不代表本站观点。
6、如本帖侵犯到任何版权问题,请立即告知本站,本站将及时予与删除并致以最深的歉意。
7、请认准精品烧包唯一域名地址:btsbao.com和bt.f-fans.club,官方QQ群:649865254。

最新回復 (361)
  • zl0409love 发表于 2019-03-31 04:46:57
    0 2
    多谢分享好东西
  • lx365001 发表于 2019-03-31 04:51:05
    0 3
    谢谢分享。
  • maxun 发表于 2019-03-31 04:57:54
    0 4
    支持特效字幕。谢谢分享。
  • 笑可掬 发表于 2019-03-31 05:20:33
    0 5
    支持特效字幕。谢谢分享
  • movie2 发表于 2019-03-31 05:33:05
    0 6
    最喜欢看特效字幕片
  • xklengxie 发表于 2019-03-31 05:33:57
    0 7
    感谢分享。
  • 虎纠小白 发表于 2019-03-31 06:19:37
    0 8
    多谢分享
  • zjf2018 发表于 2019-03-31 06:52:44
    0 9
    可以,好片子
  • 忍大代表 发表于 2019-03-31 07:06:38
    0 10
    最喜欢看特效字幕片
  • dear107 发表于 2019-03-31 07:25:40
    0 11
    thanks for sharing
  • 喜宝66 发表于 2019-03-31 07:36:23
    0 12
    感谢分享
  • shibazidaai 发表于 2019-03-31 07:57:47
    0 13
    好电影在这里
  • crazy914 发表于 2019-03-31 08:01:49
    0 14
    感谢大佬分享
  • syj520190630 发表于 2019-03-31 08:02:27
    0 15
    最近的电影都看不过来了
  • 绝情啪啪熊 发表于 2019-03-31 08:04:14
    0 16
    感谢分享
  • 张小白 发表于 2019-03-31 08:06:10
    0 17
    感谢分享
  • sunaaaafd 发表于 2019-03-31 08:14:51
    0 18
    非常感谢共享
  • kking 发表于 2019-03-31 08:15:35
    0 19
    感谢分享
  • aceboy 发表于 2019-03-31 08:18:26
    0 20
    厉害了
  • hxr333 发表于 2019-03-31 08:24:10
    0 21
    很精彩的一部电影
  • zechewang 发表于 2019-03-31 08:26:29
    0 22
    感谢分享 塞缪尔这篇演的超好
  • tsfnwmy 发表于 2019-03-31 08:27:55
    0 23
    感谢分享!
  • allendei 发表于 2019-03-31 08:28:36
    0 24
    这个好啊
  • baobao521 发表于 2019-03-31 08:32:22
    0 25
    非常感谢分享!
    • 精品烧包
      363
          
X