百度云盘.生死狙击Shooter 2007-BD1080p.H265.10Bit.DTS 5.1-中英双语特效CMCT@Cuifyun.MKA(4.7G)

◎中文译名 生死狙击/狙击手/狙击生死线/辣手枪
◎片  名 Shooter
◎日  期 2007
◎国家地区 美国/加拿大
◎影片类型 动作/剧情/惊悚
◎对  白 英语/国语
◎影片字幕 特效中英文双字幕
◎IMDB评分 7.2/10 (21,301 votes)
◎影片时长 125 Min
◎影片导演 安东尼·福奎阿 Antoine Fuqua
◎主要演员 马克·沃尔伯格 Mark Wahlberg ... Bob Lee Swagger
      迈可尔·贝尼亚 Michael Pe?a ... Nick Memphis
      丹尼·格洛弗 Danny Glover ... Colonel Isaac Johnson
      凯特·玛拉 Kate Mara ... Sarah Fenn
      伊莱亚斯·科泰斯 Elias Koteas ... Jack Payne
      罗拉·迈特拉 Rhona Mitra ... Alourdes Galindo
      尼德·巴蒂 Ned Beatty ... Senator Charles F. Meachum
      Jonathan Walker ... Louis Dobbler
      Justin Louis ... Howard Purnell
      Tate Donovan ... Russ Turner
      拉德·舍博德兹加 Rade Serbedzija ... Michael Sandor (as Rade Serbedgia)
      Alan C. Peterson ... Officer Stanley Timmons
      莱恩·加里逊 Lane Garrison ... Donnie Fenn
      Zak Santiago ... Senior Agent
      Michael-Ann Connor ... Junior Agent

◎资源介绍 

剧情:
  在美国军队中服役多年,且在战场上有过优异表现的狙击手鲍勃·李·斯瓦格(马克·沃尔伯格)在骨子里并不喜欢过这种整日与冰冷的枪械为伴的日子。于是,斯瓦格在某次任务中失去战友后退役,带着自己那条忠实的爱犬来到了偏僻的阿肯色州。开始过上自己向往已久的平静日子。
  然而,斯瓦格幸福的宁静生活并未持续多久,便被无情地打破了。一位上校带着一队人找上门来。希望,凭借他多年的狙击经验,在总统举行街头演讲的时候出手相助,在暗处为总统担任保镖。因为,政府方面此前收到消息称有恐怖分子或者杀手将会有所行动,对总统的人身安全不利。善良诚实的斯瓦格经不起上校的劝说,便应允接受了这一任务。到了总统演讲那天,斯瓦格站在演讲台对面的大楼里监视着,突然一声枪响,总统身边的埃塞俄比亚主教中枪倒地。与此同时,一名上校带来的警察突然用枪指着他,并向丝瓦格连开数枪。还没有回过神来的斯瓦格就这样稀里糊涂地被当作刺杀总统的疑犯通缉。还好斯瓦格身手敏捷,跌出窗外逃离现场。
  仔细的思考过后,斯瓦格方才清醒,原来自己从一开始便被人陷害成替罪羊。于是,斯瓦格拼命展开调查,追逐真凶,亲手为自己洗脱罪责……


幕后:
【打造终极枪手】
  影片改编自普利策奖得主斯蒂芬·亨特(Stephen Hunter)的畅销小说《冲撞点》(Point of Impact),除了小说作家之外,斯蒂芬·亨特还是《华盛顿邮报》的影评人。由于《冲撞点》赢得了广泛赞誉,亨特后来又完成了《不可见光》(Black Light)和《猎捕时刻》(Time to Hunt),与《冲撞点》并成三部曲。
  曾为《致命武器第四集》和《魔鬼代言人》编写剧本的乔纳森·莱姆金(Jonathan Lemkin)将长达550页的小说改编成120页的剧本,莱姆金的改编灵感不仅源于亨特的原著,而且从70年代的同类经典惊悚片中汲取了“阴谋元素”,他说:“我们花费了很多时间去观看早期的阴谋电影,考虑如何将那种风格移植到当今的电影中。已经记不清看过《英雄不流泪》和《暗杀十三招》多少遍了,我们在尝试用当今的方法重现那个年代阴谋电影的经典之处。”
  为了更好的刻画影片主人公鲍勃·李·斯瓦格,编剧莱姆金甚至接受了狙击手训练课程,他和海军陆战队员一起趴在地上,学习射击、匍匐穿过树丛、清洁武器和像狙击手一样思考问题。莱姆金还曾同联邦调查局接触,对野战医疗进行了大量研究。
  最终,莱姆金完成的以真实和惊险见长的剧本吸引了安东尼·福奎阿和马克·沃尔伯格的关注。对福奎阿来说,本片是他面临过的最大挑战,他说:“这部影片具有一切元素:阴谋、政府腐败、动作,当然还有马克·沃尔伯格,你必须专注的观看,因为故事情节错综复杂。”
  在马克·沃尔伯格看来,本片具有对体能和心理的双重挑战,他必须展示出一个多层面的人物形象。曾与沃尔伯格合作过4部影片的制片人罗伦佐·迪·博纳文图拉(Lorenzo di Bonaventura)说:“马克的专心程度是让人难以置信的,一旦他接手了,就要做到最好,否则他是不会罢休的。”
  可想而知,沃尔伯格接受了严格的狙击手训练,不但要掌握成为出色射手的卓越技能,还要具有像禅宗一样、能够控制情感、恐惧和耐力的能力。在出演本片之前,沃尔伯格已经是一名训练有素的运动员了,但力量、耐力和协调性还有待提高。为了让他能成为在1000米外百发百中的神枪手,制片方请来了业内精英、美国海军陆战队侦察狙击手帕特里克·加里蒂(Patrick Garrity),他不但曾在海外执行重要任务,还是狙击手专业教练。加里蒂不仅要让沃尔伯格成为神枪手,还要让他全方位的体会到狙击手的感觉。
  沃尔伯格的狙击手训练课程在位于拉斯维加斯附近的著名射击学校Front Sight Firearms Training Institute里展开,沃尔伯格回忆说:“Front Sight拥有我见过的最精良的射击训练设施,我曾一度背上130磅的装备,拿着巨大的狙击步枪走在空中几百英尺高的窄梁上,也许几年前我会乐此不疲,但现在我已经作了父亲,必须为自己的安全着想。不过,这训练真是让我大开眼界,看来安全和智慧很重要,过去的我太鲁莽了。”
  作为经受过真正战火洗礼的精英狙击手,帕特里克·加里蒂向来不会轻易被打动,但沃尔伯格的表现最终仍博得了他的尊敬,加里蒂说:“起初的马克有些散漫,但经过两天特别训练,他已经树立起绝佳的工作态度,动作迅速,手脚麻利,我认为他很适合这个角色。”
  导演安东尼·福奎阿目睹了沃尔伯格的受训过程:“整个训练过程让人惊讶,特别是完成精确的射击,马克具有太多的天赋了,他是个左撇子,而大多数武器并不是为左撇子设计的,他必须用右手射击,还有交换使用双手,他在训练的第一天就让人刮目相看。”
  加里蒂为沃尔伯格制定了周密的训练计划,先是了解海军陆战队侦察狙击手的发展简史,然后让沃尔伯格掌握各种射击位置,学习在进行超远距离射击时如何控制瞄准镜的取景范围、如何判断风的作用等等,所有成为出色狙击手的基本要领全被一一传授。加里蒂非常重视枪栓的快速操作,因为狙击手必须在完成一次射击后迅速拉动枪栓重新对准目标,沃尔伯格必须要像真正的狙击手一样熟练的操控武器系统。另外,呼吸的技巧也至关重要,俯卧在狙击步枪之后,取得良好的射击位置,调整呼吸,放松双眼并开始勾住扳机,一旦子弹击发,快速拉动枪栓,重新装弹,再次瞄准,周而复始。进入呼吸循环是每次射击前的关键因素之一,呼吸越多,进入血液中的氧气也越多,心率由此得以放缓,狙击手也就得以放松。
  超远距离精准射击是片中斯瓦格的拿手好戏,为了让沃尔伯格掌握这项技术,加里蒂将他带到了沙漠里,在沙漠中央一点一点的拉开射击距离,让加里蒂惊讶的是,到了1100码远的距离,沃尔伯格仍能击中目标,对于只训练了两天的初学者来说简直令人难以置信。沃尔伯格异常兴奋的给所有朋友都挂了电话,说自己都不敢相信居然能击中1000多码外的目标。
  除此之外,沃尔伯格还学会了伪装技术,而且随着训练的进展,沃尔伯格越发感觉到教官加里蒂的重要作用,他说服制片方,请加里蒂作影片的军事技术顾问,而加里蒂也非常乐意,因为他想让这部影片描绘出更真实可信

General
Unique ID                      : 228170213220176799727019452584932605517 (0xABA7FC0F201CC747BE467B49613AFE4D)
Complete name                  : 生死狙击Shooter 2007-BD1080p.H265.10Bit.DTS 5.1-中英双语特效CMCT@Cuifyun.mkv
Format                         : Matroska
Format version                 : Version 4 / Version 2
File size                      : 4.87 GiB
Duration                       : 2 h 5 min
Overall bit rate               : 5 546 kb/s
Encoded date                   : UTC 2019-03-29 14:34:08
Writing application            : mkvmerge v9.4.2 ('So High') 64bit
Writing library                : libebml v1.3.4 + libmatroska v1.4.5 / ShanaEncoder
Video
ID                             : 2
Format                         : HEVC
Format/Info                    : High Efficiency Video Coding
Format profile                 : Main 10@L4.1@Main
Codec ID                       : V_MPEGH/ISO/HEVC
Duration                       : 2 h 5 min
Bit rate                       : 4 984 kb/s
Width                          : 1 920 pixels
Height                         : 1 080 pixels
Display aspect ratio           : 16:9
Frame rate mode                : Constant
Frame rate                     : 60.000 FPS
Color space                    : YUV
Chroma subsampling             : 4:2:0
Bit depth                      : 10 bits
Bits/(Pixel*Frame)             : 0.040
Stream size                    : 4.38 GiB (90%)
Writing library                : x265 2.8:[Windows][GCC 5.1.0][64 bit] 10bit
Encoding settings              : cpuid=1111039 / frame-threads=2 / wpp / no-pmode / no-pme / no-psnr / no-ssim / log-level=2 / input-csp=1 / input-res=1920x1080 / interlace=0 / total-frames=0 / level-idc=0 / high-tier=1 / uhd-bd=0 / ref=4 / no-allow-non-conformance / no-repeat-headers / annexb / no-aud / no-hrd / info / hash=0 / no-temporal-layers / open-gop / min-keyint=60 / keyint=600 / gop-lookahead=0 / bframes=4 / b-adapt=2 / b-pyramid / bframe-bias=0 / rc-lookahead=25 / lookahead-slices=4 / scenecut=40 / radl=0 / no-intra-refresh / ctu=64 / min-cu-size=8 / rect / no-amp / max-tu-size=32 / tu-inter-depth=1 / tu-intra-depth=1 / limit-tu=0 / rdoq-level=2 / dynamic-rd=0.00 / no-ssim-rd / signhide / no-tskip / nr-intra=0 / nr-inter=0 / no-constrained-intra / strong-intra-smoothing / max-merge=3 / limit-refs=3 / limit-modes / me=3 / subme=3 / merange=57 / temporal-mvp / weightp / no-weightb / no-analyze-src-pics / deblock=0:0 / sao / no-sao-non-deblock / rd=4 / no-early-skip / rskip / no-fast-intra / no-tskip-fast / no-cu-lossless / no-b-intra / no-splitrd-skip / rdpenalty=0 / psy-rd=0.00 / psy-rdoq=0.00 / no-rd-refine / no-lossless / cbqpoffs=0 / crqpoffs=0 / rc=abr / bitrate=5000 / qcomp=0.60 / qpstep=4 / stats-write=0 / stats-read=0 / ipratio=1.40 / pbratio=1.30 / aq-mode=2 / aq-strength=1.00 / cutree / zone-count=0 / no-strict-cbr / qg-size=32 / no-rc-grain / qpmax=69 / qpmin=0 / no-const-vbv / sar=1 / overscan=0 / videoformat=5 / range=0 / colorprim=2 / transfer=2 / colormatrix=2 / chromaloc=0 / display-window=0 / max-cll=0,0 / min-luma=0 / max-luma=1023 / log2-max-poc-lsb=8 / vui-timing-info / vui-hrd-info / slices=1 / no-opt-qp-pps / no-opt-ref-list-length-pps / no-multi-pass-opt-rps / scenecut-bias=0.05 / no-opt-cu-delta-qp / no-aq-motion / no-hdr / no-hdr-opt / no-dhdr10-opt / no-idr-recovery-sei / analysis-reuse-level=5 / scale-factor=0 / refine-intra=0 / refine-inter=0 / refine-mv=0 / no-limit-sao / ctu-info=0 / no-lowpass-dct / refine-mv-type=0 / copy-pic=1 / max-ausize-factor=1.0 / no-dynamic-refine / no-single-sei
Default                        : No
Forced                         : No
Audio #1
ID                             : 3
Format                         : AAC
Format/Info                    : Advanced Audio Codec
Format profile                 : HE-AAC / LC
Format settings                : NBC
Codec ID                       : A_AAC-5
Duration                       : 2 h 5 min
Bit rate                       : 265 kb/s
Channel(s)                     : 6 channels
Channel positions              : Front: L C R, Side: L R, LFE
Sampling rate                  : 48.0 kHz / 24.0 kHz
Frame rate                     : 23.438 FPS (1024 SPF)
Compression mode               : Lossy
Delay relative to video        : 10 ms
Stream size                    : 240 MiB (5%)
Default                        : Yes
Forced                         : No
Audio #2
ID                             : 4
Format                         : AAC
Format/Info                    : Advanced Audio Codec
Format profile                 : HE-AAC / LC
Format settings                : NBC
Codec ID                       : A_AAC-5
Duration                       : 2 h 5 min
Bit rate                       : 265 kb/s
Channel(s)                     : 6 channels
Channel positions              : Front: L C R, Side: L R, LFE
Sampling rate                  : 48.0 kHz / 24.0 kHz
Frame rate                     : 23.438 FPS (1024 SPF)
Compression mode               : Lossy
Delay relative to video        : 10 ms
Stream size                    : 240 MiB (5%)
Default                        : No
Forced                         : No

Text
ID                             : 1
Format                         : PGS
Muxing mode                    : zlib
Codec ID                       : S_HDMV/PGS
Codec ID/Info                  : Picture based subtitle format used on BDs/HD-DVDs
Duration                       : 1 h 58 min
Bit rate                       : 25.7 kb/s
Count of elements              : 3871
Stream size                    : 21.8 MiB (0%)
Default                        : Yes
Forced                         : No


















精品燒包- 版权声明 1、本主题所有言论和图片纯属会员个人意见,与精品燒包立场无关。
2、本站所有主题由该帖子作者发表,该帖子作者cuifyun精品燒包享有帖子相关版权。
3、精品燒包管理员和版主有权不事先通知发贴者而删除本文。
4、其他单位或个人使用、转载或引用本文时必须同时征得该帖子作者cuifyun精品燒包的同意。
5、本帖内容皆来自网络,用于网友兴趣交流所用,所表达内容不代表本站观点。
6、如本帖侵犯到任何版权问题,请立即告知本站,本站将及时予与删除并致以最深的歉意。
7、请认准精品烧包唯一域名地址:btsbao.com和bt.f-fans.club,官方QQ群:649865254。

最新回復 (391)
  • 玉灬湖 发表于 2019-04-01 12:06:37
    0 2
    感谢分享
  • 風雲亂 发表于 2019-04-01 12:24:20
    0 3
    真不錯,多謝樓主大大了。
  • pydjc 发表于 2019-04-01 12:31:56
    0 4
    谢谢楼主的分享
  • 东妖 发表于 2019-04-01 12:35:58
    0 5
    谢谢楼主分享
  • 小路 发表于 2019-04-01 12:54:16
    0 6
    枪械很专业哦!
  • 小媳妇272 发表于 2019-04-01 01:22:01
    0 7
    很棒的动作片,谢谢分享
  • emil604 发表于 2019-04-01 01:32:05
    0 8
    谢谢分享,精良之作
  • huhuxinxin 发表于 2019-04-01 01:46:21
    0 9
    不错不错,分享得好!
  • superyun 发表于 2019-04-01 02:35:41
    0 10
    感谢分享
  • wzy7676 发表于 2019-04-01 03:04:03
    0 11
    这片不错,谢谢分享!
  • tsfnwmy 发表于 2019-04-01 06:01:11
    1 12
    好久没见CMCT的片子了
  • syj520190630 发表于 2019-04-01 06:38:41
    0 13
    特效字幕真好
  • yanhx_100 发表于 2019-04-01 07:23:47
    0 14
    谢谢楼主分享
  • LuvKword 发表于 2019-04-01 07:57:37
    0 15
    感谢楼主分享
  • 11111111 发表于 2019-04-01 08:06:49
    0 16
    好棒的资源啊
  • ALL119 发表于 2019-04-01 08:37:44
    0 17
    谢谢分享
  • bb3609212 发表于 2019-04-01 08:43:15
    0 18
    谢谢分享
  • haotl 发表于 2019-04-01 09:00:53
    0 19
    感谢分享
  • 汤姆 发表于 2019-04-01 09:05:23
    0 20
    谢谢分享,很好很强大
  • yvren1994 发表于 2019-04-01 09:09:39
    0 21
    谢谢分享
  • jzyzc 发表于 2019-04-01 09:18:47
    0 22
    强大的不得不收藏
  • aceboy 发表于 2019-04-01 09:25:49
    0 23
    厉害了
  • yangwei9 发表于 2019-04-01 09:46:15
    0 24
    好像需要洗牌了
  • rjl1 发表于 2019-04-01 09:53:50
    0 25
    重温一遍,好片!
  • lx365001 发表于 2019-04-01 09:57:40
    0 26
    太经典了,谢谢分享!
  • 雨巷的尽头 发表于 2019-04-01 10:01:24
    0 27
    哇,这个可以
  • eric 发表于 2019-04-01 10:02:51
    0 28
    感谢分享。。。看介绍,音轨好像不是DTS,是AAC,而且只有256kbps
  • henryhappy1986 发表于 2019-04-01 10:05:30
    0 29
    谢谢分享,很好很强大
  • lgh750922 发表于 2019-04-01 10:16:31
    0 30
    不错感谢楼主分享。。。
  • zcx59688 发表于 2019-04-01 10:28:36
    0 31
    谢谢楼主~~~~~
  • 91happy 发表于 2019-04-01 10:32:44
    0 32
    感谢分享
  • 天堂召唤兽 发表于 2019-04-01 10:41:29
    0 33
    感谢楼主分享~
  • hhking 发表于 2019-04-01 11:04:33
    0 34
    感谢分享
  • ly 发表于 2019-04-01 11:08:48
    0 35
    谢谢分享,收藏
  • 安静看电影 发表于 2019-04-01 11:09:41
    0 36
    感谢分享
  • piligao 发表于 2019-04-01 11:10:23
    0 37
    有特效真好,洗了
  • haocao 发表于 2019-04-01 11:11:49
    0 38
    楼主辛苦,谢谢分享!
  • Zicold 发表于 2019-04-01 11:24:23
    0 39
    绝对感谢 致敬
  • zxylxb 发表于 2019-04-01 11:33:25
    0 40
    谢谢分享!!
  • 3少爷的剑 发表于 2019-04-01 11:49:42
    0 41
    超级感谢,非常棒
  • 徐忠华 发表于 2019-04-01 11:52:32
    0 42
    谢谢分享!
  • niuren80 发表于 2019-04-01 12:04:19
    0 43
    谢谢 收藏了
  • zyzyq 发表于 2019-04-01 12:17:00
    0 44
    这个特效一级棒!!我喜欢 收藏了
  • hyqmagic 发表于 2019-04-01 12:32:25
    0 45
    谢谢楼主分享!!
  • 肝胆皆冰雪 发表于 2019-04-01 12:49:17
    0 46
    值得收藏的经典电影!
  • junblong 发表于 2019-04-01 01:15:40
    0 47
    这个要收了。。
  • nbzhftwb 发表于 2019-04-01 01:56:34
    0 48
    太经典了,谢谢分享!
  • xklengxie 发表于 2019-04-01 02:04:49
    0 49
    感谢分享。
  • 张小白 发表于 2019-04-01 02:05:38
    0 50
    感谢楼主分享
    • 精品燒包
      393
          
X