哭泣女人的诅咒.The.Curse.Of.La.Llorona.2019.BluRay.H265.10Bit.TrueHD(7.1).1080P-DDR[8G] 转载 BD 1080P 美国 2019 惊悚 恐怖


◎译  名 哭泣女人的诅咒/哭泣的女人(台)/哭泣的女诡(港)/孩子们/泣妇的诅咒(豆友译名)/泣妇诅咒
◎片  名 The Curse of La Llorona
◎年  代 2019
◎产  地 美国
◎类  别 悬疑 / 惊悚 / 恐怖
◎语  言 英语
◎上映日期 2019-04-19(美国)
◎IMDb评分  5.5/10 from 18567 users
◎IMDb链接  https://www.imdb.com/title/tt4913966/
◎豆瓣评分 5.9/10 from 6,287 users
◎豆瓣链接 https://movie.douban.com/subject/27168310/
◎片  长 93分钟
◎导  演 迈克尔·查维斯 Michael Chaves
◎编  剧 米琪·多特里 Mikki Daughtry / 托拜厄斯·伊康尼斯 Tobias Iaconis
◎主  演 琳达·卡德里尼 Linda Cardellini
       帕翠西娅·维拉奎兹 Patricia Velasquez
       雷蒙德·克鲁斯 Raymond Cruz
       玛德琳·麦格劳 Madeleine McGraw
       西恩·帕特里克·汤玛斯 Sean Patrick Thomas
       伊蕾娜·肯 Irene Keng
       里卡多·马姆多 Ricardo Mamood
       安德鲁·T·李 Andrew T. Lee
       玛丽索尔·拉米雷斯 Marisol Ramirez
       约翰·马歇尔·琼斯 John Marshall Jones
       杰妮-琳恩·金辰 Jaynee-Lynne Kinchen
◎获奖情况
               第28届MTV电影奖 ?(2019)
               MTV电影奖最佳惊恐戏表演(提名) 琳达·卡德里尼
◎简  介
  新线恐怖片[孩子们]更名为[哭泣的女人的诅咒](The Curse of La Llorona,暂译),温子仁担任制片,其公司Atomic Monsters担任制作。导演迈克尔·查维斯,主演琳达·卡德里尼。墨西哥传说中有一个“哭泣的女人”的故事, 一个丢了自己孩子的女人开始掠夺其它人家的孩子。片中的单身母亲在调查儿童失踪案时发现这个“哭泣的女人”似乎就在她的身边。












General
Unique ID                      : 63878001001526509524953875122813247173 (0x300E749B19B19D0B372232290A2D9EC5)
Complete name                  : G:\Downloads\哭泣女人的诅咒.The.Curse.Of.La.Llorona.2019.BluRay.H265.10Bit.DDP(5.1).1080P-.1080P-DDR.mkv
Format                         : Matroska
Format version                 : Version 4
File size                      : 8.07 GiB
Duration                       : 1 h 33 min
Overall bit rate mode          : Variable
Overall bit rate               : 12.4 Mb/s
Encoded date                   : UTC 2019-07-21 17:58:21
Writing application            : mkvmerge v35.0.0 ('All The Love In The World') 64-bit
Writing library                : libebml v1.3.9 + libmatroska v1.5.2
Video
ID                             : 1
Format                         : HEVC
Format/Info                    : High Efficiency Video Coding
Format profile                 : Main 10@L4.1@High
Codec ID                       : V_MPEGH/ISO/HEVC
Duration                       : 1 h 33 min
Bit rate                       : 6 974 kb/s
Width                          : 1 920 pixels
Height                         : 800 pixels
Display aspect ratio           : 2.40:1
Frame rate mode                : Constant
Frame rate                     : 23.976 (24000/1001) FPS
Color space                    : YUV
Chroma subsampling             : 4:2:0
Bit depth                      : 10 bits
Bits/(Pixel*Frame)             : 0.189
Stream size                    : 4.54 GiB (56%)
Language                       : English
Default                        : Yes
Forced                         : No
Color range                    : Limited
Color primaries                : BT.709
Transfer characteristics       : BT.709
Matrix coefficients            : BT.709
Audio #1
ID                             : 2
Format                         : MLP FBA 16-ch
Format/Info                    : Meridian Lossless Packing FBA with 16-channel presentation
Commercial name                : Dolby TrueHD with Dolby Atmos
Codec ID                       : A_TRUEHD
Duration                       : 1 h 33 min
Bit rate mode                  : Variable
Bit rate                       : 3 531 kb/s
Maximum bit rate               : 6 201 kb/s
Channel(s)                     : 8 channels
Channel layout                 : L R C LFE Ls Rs Lb Rb
Sampling rate                  : 48.0 kHz
Frame rate                     : 1 200.000 FPS (40 SPF)
Compression mode               : Lossless
Stream size                    : 2.30 GiB (29%)
Language                       : English
Default                        : Yes
Forced                         : No
Number of dynamic objects      : 15
Bed channel count              : 1 channel
Bed channel configuration      : LFE
Audio #2
ID                             : 3
Format                         : AC-3
Format/Info                    : Audio Coding 3
Commercial name                : Dolby Digital
Codec ID                       : A_AC3
Duration                       : 1 h 33 min
Bit rate mode                  : Constant
Bit rate                       : 448 kb/s
Channel(s)                     : 6 channels
Channel layout                 : L R C LFE Ls Rs
Sampling rate                  : 48.0 kHz
Frame rate                     : 31.250 FPS (1536 SPF)
Bit depth                      : 16 bits
Compression mode               : Lossy
Stream size                    : 299 MiB (4%)
Language                       : English
Service kind                   : Complete Main
Default                        : No
Forced                         : No
Audio #3
ID                             : 4
Format                         : AC-3
Format/Info                    : Audio Coding 3
Commercial name                : Dolby Digital
Codec ID                       : A_AC3
Duration                       : 1 h 33 min
Bit rate mode                  : Constant
Bit rate                       : 448 kb/s
Channel(s)                     : 6 channels
Channel layout                 : L R C LFE Ls Rs
Sampling rate                  : 48.0 kHz
Frame rate                     : 31.250 FPS (1536 SPF)
Bit depth                      : 16 bits
Compression mode               : Lossy
Stream size                    : 299 MiB (4%)
Language                       : French
Service kind                   : Complete Main
Default                        : No
Forced                         : No
Audio #4
ID                             : 5
Format                         : AC-3
Format/Info                    : Audio Coding 3
Commercial name                : Dolby Digital
Codec ID                       : A_AC3
Duration                       : 1 h 33 min
Bit rate mode                  : Constant
Bit rate                       : 448 kb/s
Channel(s)                     : 6 channels
Channel layout                 : L R C LFE Ls Rs
Sampling rate                  : 48.0 kHz
Frame rate                     : 31.250 FPS (1536 SPF)
Bit depth                      : 16 bits
Compression mode               : Lossy
Stream size                    : 299 MiB (4%)
Language                       : Spanish
Service kind                   : Complete Main
Default                        : No
Forced                         : No
Audio #5
ID                             : 6
Format                         : AC-3
Format/Info                    : Audio Coding 3
Commercial name                : Dolby Digital
Codec ID                       : A_AC3
Duration                       : 1 h 33 min
Bit rate mode                  : Constant
Bit rate                       : 448 kb/s
Channel(s)                     : 6 channels
Channel layout                 : L R C LFE Ls Rs
Sampling rate                  : 48.0 kHz
Frame rate                     : 31.250 FPS (1536 SPF)
Bit depth                      : 16 bits
Compression mode               : Lossy
Stream size                    : 299 MiB (4%)
Language                       : Portuguese
Service kind                   : Complete Main
Default                        : No
Forced                         : No


上传的附件:

精品燒包- 版权声明 1、本主题所有言论和图片纯属会员个人意见,与精品燒包立场无关。
2、本站所有主题由该帖子作者发表,该帖子作者NXX精品燒包享有帖子相关版权。
3、精品燒包管理员和版主有权不事先通知发贴者而删除本文。
4、其他单位或个人使用、转载或引用本文时必须同时征得该帖子作者NXX精品燒包的同意。
5、本帖内容皆来自网络,用于网友兴趣交流所用,所表达内容不代表本站观点。
6、如本帖侵犯到任何版权问题,请立即告知本站,本站将及时予与删除并致以最深的歉意。
7、请认准精品烧包唯一域名地址:btsbao.com和bt.f-fans.club,官方QQ群:649865254。

最新回復 (17)
  • NXX 发表于 2019-08-04 04:28:50
    0 2
    鬼洗头
  • btsusr 发表于 2019-08-04 04:34:29
    0 3
    感激不尽,谢谢楼主!
  • baobao521 发表于 2019-08-04 10:31:36
    0 4
    感谢楼主分享 
  • haima4g18 发表于 2019-08-04 11:03:21
    0 5
    有字幕吗?
  • timebitx001 发表于 2019-08-04 11:50:44
    0 6
    感谢楼主分享 
  • sp2002760 发表于 2019-08-05 12:35:05
    0 7
    谢谢楼主无私的分享
  • penghongli 发表于 2019-08-05 07:42:32
    0 8
    谢谢分享
  • 天堂召唤兽 发表于 2019-08-05 02:30:25
    0 9
    感谢楼主分享 
  • jjldf 发表于 2019-08-05 06:11:02
    0 10
    谢楼主分享 
  • chrislong 发表于 2019-08-05 08:11:00
    0 11
    这个竟然有这么大  哈哈
  • PCHUN 发表于 2019-08-06 12:02:03
    0 12
    謝謝樓主分享
  • xj278 发表于 2019-08-06 10:00:40
    0 13
    求中文字幕
  • siemens113 发表于 2019-08-07 11:56:10
    0 14
    感谢
  • liujc 发表于 2019-08-10 04:09:00
    0 15
    支持楼主谢谢分享
  • cloudliker 发表于 2019-08-12 10:00:33
    0 16
    11
  • 779494662 发表于 2019-08-18 05:21:28
    0 17
    xj278 求中文字幕
    有外挂字幕。
  • 笑笑 发表于 2019-08-18 11:13:24
    0 18
    谢谢分享
    • 精品燒包
      19
          
X