[磁力链]我为卿狂.Hidden Desire.1991.HK.BluRay.1920x1080p.x264.AC3.2Audios-KOOK.[国粤双语/中英双字][10.10 GB] 转载 BD 1080P 中字 中国香港 1990年代 剧情 肉肉

本帖内容转载自 乐赏社区@kook ,感谢!(. ❛ ᴗ ❛.)


※※※※※※※ 影片信息 ※※※※※※※
◎片   名 我为卿狂
◎译   名 云雨难忘我为卿狂 / Hidden Desire / Ngoh wai hing kong
◎年   代 1991
◎国   家 中国香港
◎类   别 情色
◎语   言 粤语/国语
◎上映日期 1991
◎字    幕 中英字幕/英中字幕/简体字幕/繁体字幕/英文字幕
◎IMDB 评分  4.4/10 from 79 users
◎豆瓣 评分  5.8/10 from 2798 users
◎视频尺 寸  1920x1080p
◎片   长 1:32:13
◎导   演 何藩
◎编   剧  江香生
◎主   演 叶玉卿 / 村上丽奈 / 郭秀云 / 曹查理 / 林聪
 
◎简  介
  徐大维远从回港接管香港分公司。分公司经理查理(曹查理饰)终日只知勾引公司女同事,把公司弄得一团糟。徐回来后便提升营业主任林婷婷为总经理。大维渐渐对婷婷倾心,但是婷婷的好姐妹祖儿(叶玉卿饰)也看上了大维,这段三角恋以婷婷退出,远走美国告终。大维与祖儿在一起却无法填补内心的空虚,于是离开了她。 
  公司终于经营失败,为日本最大的财团“大田”所收购。大维因此又邂逅他生命中的另一个女子——裕子(村上丽奈饰),二人的爱情即刻点燃,却不料裕子的父亲介入其中......

※※※※※※※ 参数信息 ※※※※※※※
General
Unique ID                      : 194237395886435874561390875740346427905 (0x9220C2FF25DEF6F28E25460C5A0EAA01)
Format                         : Matroska
Format version                 : Version 4 / Version 2
File size                      : 10.1 GiB
Duration                       : 1h 32mn
Overall bit rate               : 15.7 Mbps
Movie name                     : KOOK
Encoded date                   : UTC 2019-09-07 23:52:42
Writing application            : mkvmerge v7.7.0 ('Six Voices') 32bit built on Feb 28 2015 23:23:00
Writing library                : libebml v1.3.1 + libmatroska v1.4.2
Attachements                   : 蓝光.jpg / fzgljw.ttf / STKAITI.TTF
Video
ID                             : 1
Format                         : AVC
Format/Info                    : Advanced Video Codec
Format profile                 : Baseline@L4
Format settings, CABAC         : No
Format settings, ReFrames      : 1 frame
Codec ID                       : V_MPEG4/ISO/AVC
Duration                       : 1h 32mn
Bit rate                       : 14.9 Mbps
Width                          : 1 920 pixels
Height                         : 1 080 pixels
Display aspect ratio           : 16:9
Frame rate mode                : Constant
Frame rate                     : 24.000 fps
Color space                    : YUV
Chroma subsampling             : 4:2:0
Bit depth                      : 8 bits
Scan type                      : Progressive
Bits/(Pixel*Frame)             : 0.300
Stream size                    : 9.62 GiB (95%)
Default                        : No
Forced                         : No
Color range                    : Limited
Audio #1
ID                             : 2
Format                         : AC-3
Format/Info                    : Audio Coding 3
Mode extension                 : CM (complete main)
Format settings, Endianness    : Big
Codec ID                       : A_AC3
Duration                       : 1h 32mn
Bit rate mode                  : Constant
Bit rate                       : 384 Kbps
Channel(s)                     : 2 channels
Channel positions              : Front: L R
Sampling rate                  : 48.0 KHz
Frame rate                     : 31.250 fps (1536 spf)
Compression mode               : Lossy
Stream size                    : 253 MiB (2%)
Title                          : 国语
Default                        : Yes
Forced                         : No
Audio #2
ID                             : 3
Format                         : AC-3
Format/Info                    : Audio Coding 3
Mode extension                 : CM (complete main)
Format settings, Endianness    : Big
Codec ID                       : A_AC3
Duration                       : 1h 32mn
Bit rate mode                  : Constant
Bit rate                       : 384 Kbps
Channel(s)                     : 2 channels
Channel positions              : Front: L R
Sampling rate                  : 48.0 KHz
Frame rate                     : 31.250 fps (1536 spf)
Compression mode               : Lossy
Stream size                    : 253 MiB (2%)
Title                          : 粤语
Default                        : No
Forced                         : No
Text #1
ID                             : 4
Format                         : ASS
Codec ID                       : S_TEXT/ASS
Codec ID/Info                  : Advanced Sub Station Alpha
Duration                       : 1h 31mn
Bit rate                       : 106 bps
Count of elements              : 494
Compression mode               : Lossless
Stream size                    : 71.6 KiB (0%)
Title                          : 中英字幕
Language                       : Chinese
Default                        : Yes
Forced                         : No
Text #2
ID                             : 5
Format                         : ASS
Codec ID                       : S_TEXT/ASS
Codec ID/Info                  : Advanced Sub Station Alpha
Duration                       : 1h 31mn
Bit rate                       : 164 bps
Count of elements              : 494
Compression mode               : Lossless
Stream size                    : 110 KiB (0%)
Title                          : 英中字幕
Language                       : English
Default                        : No
Forced                         : No
Text #3
ID                             : 6
Format                         : ASS
Codec ID                       : S_TEXT/ASS
Codec ID/Info                  : Advanced Sub Station Alpha
Duration                       : 1h 31mn
Bit rate                       : 50 bps
Count of elements              : 494
Compression mode               : Lossless
Stream size                    : 33.8 KiB (0%)
Title                          : 简体字幕
Language                       : Chinese
Default                        : No
Forced                         : No
Text #4
ID                             : 7
Format                         : ASS
Codec ID                       : S_TEXT/ASS
Codec ID/Info                  : Advanced Sub Station Alpha
Duration                       : 1h 31mn
Bit rate                       : 50 bps
Count of elements              : 494
Compression mode               : Lossless
Stream size                    : 33.8 KiB (0%)
Title                          : 繁体字幕
Language                       : Chinese
Default                        : No
Forced                         : No
Text #5
ID                             : 8
Format                         : ASS
Codec ID                       : S_TEXT/ASS
Codec ID/Info                  : Advanced Sub Station Alpha
Duration                       : 1h 31mn
Bit rate                       : 78 bps
Count of elements              : 494
Compression mode               : Lossless
Stream size                    : 52.6 KiB (0%)
Title                          : 英文字幕
Language                       : English
Default                        : No
Forced                         : No

※※※※※※※  资源下载  ※※※※※※※

【磁力链接】magnet:?xt=urn:btih:FB46F1536657D4BDE58A15CDEF1F101956142FAD


精品烧包- 版权声明 1、本主题所有言论和图片纯属会员个人意见,与精品烧包立场无关。
2、本站所有主题由该帖子作者发表,该帖子作者黄玉秀888精品烧包享有帖子相关版权。
3、精品烧包管理员和版主有权不事先通知发贴者而删除本文。
4、其他单位或个人使用、转载或引用本文时必须同时征得该帖子作者黄玉秀888精品烧包的同意。
5、本帖内容皆来自网络,用于网友兴趣交流所用,所表达内容不代表本站观点。
6、如本帖侵犯到任何版权问题,请立即告知本站,本站将及时予与删除并致以最深的歉意。
7、请认准精品烧包唯一域名地址:btsbao.com和bt.f-fans.club,官方QQ群:649865254。

最新回復 (30)
  • miacy 发表于 2019-09-17 06:57:54
    0 2
    沙发       
  • ALL119 发表于 2019-09-17 11:31:17
    0 3
    感谢分享了
  • sp2002760 发表于 2019-09-17 12:31:58
    0 4
    谢谢楼主无私的分享
  • UMNARUTO 发表于 2019-09-17 02:38:55
    0 5
    谢谢楼主分享
  • 活着 发表于 2019-09-17 02:53:19
    0 6
    感谢分享!下载收藏了
  • hxr333 发表于 2019-09-17 09:05:18
    0 7
    谢谢楼主分享
  • PCHUN 发表于 2019-09-18 12:43:01
    0 8
    Thanks for sharing
  • 0310 发表于 2019-09-18 02:08:06
    0 9
    感谢分享
  • wolayeah 发表于 2019-09-18 07:50:16
    0 10
    感谢分享
  • smydlc 发表于 2019-09-18 08:02:10
    0 11
    感谢分享!下载收藏了
  • 继续支持 发表于 2019-09-18 09:46:57
    0 12
    我为卿狂,凭借此片,叶玉卿一脱成名。
  • 维塔光魔 发表于 2019-09-18 04:40:53
    0 13
    感谢
  • 夜梦素颜 发表于 2019-09-18 07:27:05
    0 14
    感谢
  • 野人嚎 发表于 2019-09-18 08:28:49
    0 15
    卿本佳人,意乱情迷还会有吗?
  • kelann 发表于 2019-09-18 09:32:59
    0 16
    做着沙发看,最好。
  • xijiajun1 发表于 2019-09-18 09:50:44
    0 17
    谢谢楼主分享
  • vikingwoman 发表于 2019-09-19 12:31:48
    0 18
    感谢分享!下载收藏了
  • lidawei015569 发表于 2019-09-19 11:25:35
    0 19


    谢谢楼主分享.............

  • 剑影V风煞血 发表于 2019-09-19 04:17:02
    0 20
    谢谢分享。
  • uiop88 发表于 2019-09-19 04:44:25
    0 21
    这么好的资源顶一下
  • sailer119 发表于 2019-09-19 06:40:24
    0 22
    这么好的资源顶一
  • 道菲 发表于 2019-09-20 05:07:16
    0 23
    感谢分享这么经典的片子!
  • 夜梦素颜 发表于 2019-09-21 10:18:36
    0 24
    卿本佳人,情不自禁,叶玉卿另外两部有吗
  • lanjingyun 发表于 2019-09-21 04:18:17
    0 25
    非常经典的作品啊
    • 精品烧包
      32
          
X